*

Alex Gaudino Feat Crystal Waters - Destination Calabria HDTV AC3 DivX

Alex Gaudino Feat Crystal Waters - Destination Calabria HDTV AC3 DivX

POP
Format : DivX
Format/Info : Hack of AVI
File size : 121 MiB
Duration : 3mn 2s
Overall bit rate : 5 541 Kbps

Alex Gaudino Feat Crystal Waters - Destination Calabria HDTV AC3 DivX

Video
ID : 0
Format : MPEG-4 Visual
Format settings, BVOP : 1
Format settings, QPel : No
Format settings, GMC : No warppoints
Format settings, Matrix : Default (H.263)
Muxing mode : Packed bitstream
Codec ID : DX50
Codec ID/Hint : DivX 5
Duration : 3mn 2s
Bit rate : 5 084 Kbps
Width : 1 200 pixels
Height : 544 pixels
Display aspect ratio : 2.2:1
Frame rate : 25.000 fps
Color space : YUV
Chroma subsampling : 4:2:0
Bit depth : 8 bits
Scan type : Progressive
Compression mode : Lossy
Bits/(Pixel*Frame) : 0.312
Stream size : 111 MiB (92%)
Title : Main
Writing library : DivX 6.6.1.4

Audio
ID : 1
Format : AC-3
Format/Info : Audio Coding 3
Mode extension : CM (complete main)
Format settings, Endianness : Big
Codec ID : 2000
Duration : 3mn 2s
Bit rate mode : Constant
Bit rate : 448 Kbps
Channel(s) : 2 channels
Channel positions : Front: L R
Sampling rate : 48.0 KHz
Bit depth : 16 bits
Compression mode : Lossy
Stream size : 9.75 MiB (8%)
Alignment : Split accross interleaves
Interleave, duration : 40 ms (1.00 video frame)
Interleave, preload duration : 500 ms
Title : Audio

Скачать Alex Gaudino Feat Crystal Waters - Destination Calabria HDTV AC3 DivX










Теги: Alex Gaudino Feat Crystal Waters pop

Уважаемый посетитель, Вы зашли на как незарегистрированный пользователь.
Мы рекомендуем Вам зарегистрироваться либо войти на сайт под своим именем.

Информация
Посетители, находящиеся в группе Гости, не могут оставлять комментарии к данной публикации.




Новости

^

Уроки фотошопа

^

Игры

^

Полезное

^

Женский сайт