*

(Hard Rock) Crystal Ball - Dawnbreaker (Digipack Limited Edition) (2013) [FLAC (Image+.CUE), Lossless]

(Hard Rock) Crystal Ball - Dawnbreaker (Digipack Limited Edition) (2013) [FLAC (Image+.CUE), Lossless]


Жанр: Hard Rock
Год выпуска: 2013
Производитель диска: Massacre Records - MAS DP0844
Аудиокодек: FLAC
Тип рипа: Image+.CUE
Битрейт аудио: Lossless
Продолжительность: 00:50:43
Размер: 406.25 Mb

Треклист:
01. Zarathustra
02. Break Of Dawn
03. Anyone Can Be A Hero
04. The Brothers Were Wright
05. Eternal Flame
06. Skin To Skin
07. Walls Fall Down
08. Back For Good
09. Power Pack
10. Stranded
11. Sun Came Out
Bonus Track:
12. Touch The Sky
13. Bond Of Love

Отчет EAC
Exact Audio Copy V1.0 beta 2 from 29. April 2011

EAC extraction logfile from 4. December 2013, 19:50

Crystal Ball / Dawnbreaker

Used drive : HL-DT-STDVDRAM GH24LS70 Adapter: 2 ID: 1

Read mode : Secure
Utilize accurate stream : Yes
Defeat audio cache : Yes
Make use of C2 pointers : No

Read offset correction : 667
Overread into Lead-In and Lead-Out : No
Fill up missing offset samples with silence : Yes
Delete leading and trailing silent blocks : No
Null samples used in CRC calculations : Yes
Used interface : Native Win32 interface for Win NT & 2000

Used output format : User Defined Encoder
Selected bitrate : 896 kBit/s
Quality : High
Add ID3 tag : No
Command line compressor : C:\Program Files\Exact Audio Copy\FLAC\FLAC.EXE
Additional command line options : -V -8 -T "Date=" -T "Genre="

TOC of the extracted CD

Track | Start | Length | Start sector | End sector
---------------------------------------------------------
1 | 0:00.00 | 1:29.24 | 0 | 6698
2 | 1:29.24 | 3:09.63 | 6699 | 20936
3 | 4:39.12 | 3:50.58 | 20937 | 38244
4 | 8:29.70 | 3:38.08 | 38245 | 54602
5 | 12:08.03 | 3:46.43 | 54603 | 71595
6 | 15:54.46 | 4:44.73 | 71596 | 92968
7 | 20:39.44 | 4:09.53 | 92969 | 111696
8 | 24:49.22 | 4:10.57 | 111697 | 130503
9 | 29:00.04 | 4:06.51 | 130504 | 149004
10 | 33:06.55 | 5:36.71 | 149005 | 174275
11 | 38:43.51 | 4:33.65 | 174276 | 194815
12 | 43:17.41 | 4:19.42 | 194816 | 214282
13 | 47:37.08 | 3:06.05 | 214283 | 228237

Range status and errors

Selected range

Filename E:\Crystal Ball-Dawnbreaker (2013)\Crystal Ball.wav

Peak level 100.0 %
Extraction speed 1.8 X
Range quality 100.0 %
Copy CRC 1766C9AC
Copy OK

No errors occurred

End of status report

==== Log checksum 1FEC09A9AB8EC7C618738D1DE218D814B40684013374E98503842D20372E1BD6 ====

Скачать (Hard Rock) Crystal Ball - Dawnbreaker (Digipack Limited Edition) (2013) [FLAC (Image+.CUE), Lossless]










Теги: Crystal Ball Dawnbreaker Hard Rock Lossless

Уважаемый посетитель, Вы зашли на как незарегистрированный пользователь.
Мы рекомендуем Вам зарегистрироваться либо войти на сайт под своим именем.

Информация
Посетители, находящиеся в группе Гости, не могут оставлять комментарии к данной публикации.




Новости

^

Уроки фотошопа

^

Игры

^

Полезное

^

Женский сайт