*

Живые Пейзажи. Красивейшие Уголки Земли / Living Landscapes. The World's Most Beautiful Places (2006) 720p

Живые Пейзажи. Красивейшие Уголки Земли / Living Landscapes. The World's Most Beautiful Places (2006) 720p


Название: Живые Пейзажи. Красивейшие Уголки Земли
Оригинальное название: Living Landscapes. The World's Most Beautiful Places
Год выпуска: 2006
Жанр: Видовой
Продолжительность: 01:17:03
Перевод: Не требуется (музыкальное сопровождение)
Режиссер / Телекомпания: Майкл Хьюман / Studio HDenvironments

Живые Пейзажи. Красивейшие Уголки Земли - видовой фильм.

MediaInfo
General
Format : Matroska
Format version : Version 4 / Version 2
File size : 3.85 GiB
Duration : 1h 17mn
Overall bit rate : 7 150 Kbps
Encoded date : UTC 2014-12-30 10:51:50
Writing application : mkvmerge v7.3.0 ('Nouages') 64bit built on Oct 22 2014 18:53:34
Writing library : libebml v1.3.0 + libmatroska v1.4.1
DURATION : 01:17:03.680000000
NUMBER_OF_FRAMES : 144490
NUMBER_OF_BYTES : 258926080
_STATISTICS_WRITING_APP : mkvmerge v7.3.0 ('Nouages') 64bit built on Oct 22 2014 18:53:34
_STATISTICS_WRITING_DATE_UTC : 2014-12-30 10:51:50
_STATISTICS_TAGS : BPS DURATION NUMBER_OF_FRAMES NUMBER_OF_BYTES

Video
ID : 1
Format : AVC
Format/Info : Advanced Video Codec
Format profile : High@L4.1
Format settings, CABAC : Yes
Format settings, ReFrames : 6 frames
Codec ID : V_MPEG4/ISO/AVC
Duration : 1h 17mn
Bit rate : 6 560 Kbps
Width : 1 276 pixels
Height : 704 pixels
Display aspect ratio : 16:9
Frame rate mode : Constant
Frame rate : 59.880 fps
Original frame rate : 59.940 fps
Color space : YUV
Chroma subsampling : 4:2:0
Bit depth : 8 bits
Scan type : Progressive
Bits/(Pixel*Frame) : 0.122
Stream size : 3.53 GiB
Writing library : x264 core 130 r2273 b3065e6
Encoding settings : cabac=1 / ref=6 / deblock=1:-1:-1 / analyse=0x3:0x111 / me=esa / subme=7 / psy=1 / psy_rd=1.00:0.15 / mixed_ref=1 / me_range=4 / chroma_me=1 / trellis=2 / 8x8dct=1 / cqm=0 / deadzone=21,11 / fast_pskip=1 / chroma_qp_offset=-3 / threads=12 / lookahead_threads=3 / sliced_threads=0 / nr=0 / decimate=1 / interlaced=0 / bluray_compat=0 / constrained_intra=0 / bframes=4 / b_pyramid=2 / b_adapt=2 / b_bias=0 / direct=1 / weightb=1 / open_gop=0 / weightp=2 / keyint=250 / keyint_min=25 / scenecut=40 / intra_refresh=0 / rc_lookahead=50 / rc=crf / mbtree=1 / crf=16.7 / qcomp=0.60 / qpmin=0 / qpmax=69 / qpstep=4 / vbv_maxrate=50000 / vbv_bufsize=50000 / crf_max=0.0 / nal_hrd=none / ip_ratio=1.40 / aq=1:1.00
Language : English
Default : Yes
Forced : No
DURATION : 01:17:02.706000000
NUMBER_OF_FRAMES : 277085
NUMBER_OF_BYTES : 3871126444
_STATISTICS_WRITING_APP : mkvmerge v7.3.0 ('Nouages') 64bit built on Oct 22 2014 18:53:34
_STATISTICS_WRITING_DATE_UTC : 2014-12-30 10:51:50
_STATISTICS_TAGS : BPS DURATION NUMBER_OF_FRAMES NUMBER_OF_BYTES

Audio
ID : 2
Format : AC-3
Format/Info : Audio Coding 3
Mode extension : CM (complete main)
Format settings, Endianness : Big
Codec ID : A_AC3
Duration : 1h 17mn
Bit rate mode : Constant
Bit rate : 448 Kbps
Channel(s) : 6 channels
Channel positions : Front: L C R, Side: L R, LFE
Sampling rate : 48.0 KHz
Bit depth : 16 bits
Compression mode : Lossy
Stream size : 247 MiB
Default : Yes
Forced : No


Живые Пейзажи. Красивейшие Уголки Земли / Living Landscapes. The World's Most Beautiful Places (2006) 720p Живые Пейзажи. Красивейшие Уголки Земли / Living Landscapes. The World's Most Beautiful Places (2006) 720p Живые Пейзажи. Красивейшие Уголки Земли / Living Landscapes. The World's Most Beautiful Places (2006) 720p Живые Пейзажи. Красивейшие Уголки Земли / Living Landscapes. The World's Most Beautiful Places (2006) 720p Живые Пейзажи. Красивейшие Уголки Земли / Living Landscapes. The World's Most Beautiful Places (2006) 720p


Кодек: AVC
Формат: MKV
Качество: BDRip 720p
Видео: 1276x704, 59.940 fps, 6560 Kbps
Аудио:[музыка] AC3, 5.1 ch, 48.0 kHz, 448 kbps
Размер: 3.85 GB

Скачать Живые Пейзажи. Красивейшие Уголки Земли / Living Landscapes. The World's Most Beautiful Places (2006) 720p










Теги: Живые Пейзажи Красивейшие Уголки Земли видовой фильм

Уважаемый посетитель, Вы зашли на как незарегистрированный пользователь.
Мы рекомендуем Вам зарегистрироваться либо войти на сайт под своим именем.

Информация
Посетители, находящиеся в группе Гости, не могут оставлять комментарии к данной публикации.




Новости

^

Уроки фотошопа

^

Полезное

^

Женский сайт